1989 taylor swift taylors version. When Taylor Swift announced that 1989 (Taylor’s Version) w...

Taylor Swift has announced the latest in her series of re-recorded a

Ranking of the Original ad new "1989" by Taylor Swift. Create a 1989 and 1989 (Taylors Version) tier list. Check out our other Music tier list templates and the most recent user submitted Music tier lists. 🔴 Live Voting Poll Alignment Chart View Community Rank💜 Speak Now (Taylor's Version) 7/7 💜💕 Midnights is out everywhere!Buy/Download/Stream ‘Midnights’: https://taylor.lnk.to/taylorswiftmidnightsSubscribe me:...In July of this year, she dropped Speak Now (Taylor’s Version), a new take on her 2010 third album. With 1989, she’ll be returning to one of her most critically acclaimed albums, which ...Oct 27, 2014 · 1989. Taylor Swift. Taylor Swift's '80s-inspired fifth studio effort is her first "official pop album," with heavyweights like Max Martin, Shellback, Ryan Tedder, and Jack Antonoff helping construct a sleeker, glitzier sound. "Shake It Off" mimics "Hey Ya," OutKast's own pledge of allegiance to populism, and echoes of Madonna, Cyndi Lauper, and ... All 13 of Swift’s full-length studio albums and re-recorded projects from 2008’s Fearless, her second studio album, through 2023’s 1989 (Taylor’s Version) have debuted at No. 1.. Swift ...Welcome to my Music Playlist Channel. Enjoy Listening.Buy/download/stream ‘1989 (Taylor’s Version)’: https://taylor.lnk.to/1989taylorsversionGmail: mcmusicp...Sep 20, 2023 · Taylor Swift has revealed the four back covers of '1989 (Taylor's Version)' and the complete tracklist — including vault track "Slut!" Taylor Swift was born in 1989, hence the album title. Taylor Swift has delighted fans with a re-recorded version of 1989, the best-selling album of her career, along with five unheard songs from ...Can we be honest for a second? Going to concerts can be a massive pain. You have to hope you get tickets (we’re looking at you, Taylor Swift), pay an arm and a leg, and then cram y...1989 [Taylor's Version] Taylor Swift (Digital Download - Taylor Swift #) Main Album: 1989 [Taylor's Version] (2023) Release Date October 27, 2023. Label. …27-Oct-2023 ... Taylor Swift Addresses Speculation About Her Sexuality and Dating Life in '1989 (Taylor's Version)' Prologue. "If I only hung out with my female&nb...AT&T unveiled its streaming TV service, DirecTVNow, which will offer more than 100 channels for $35 a month and a Taylor Swift show. By clicking "TRY IT", I agree to receive ne...13-Aug-2023 ... 1989 (Taylor's Version) is on its way to you! The 1989 album changed my life in countless ways, and it fills me with such excitement to announce ...Listen to “Sparks Fly" (Taylor’s Version) by Taylor Swift from the album Speak Now (Taylor’s Version).Buy/Download/Stream ‘Speak Now (Taylor's Version)’: htt...https://taylor.lnk.to/1989taylorsversionNext came Red (Taylor’s Version) in November of that year, and on July 7, 2023, her third and the halfway point in the project, Speak Now (Taylor’s Version). On Oct. 27, 2023, Swift released ...Taylor Swift’s ‘1989’: 9 Key Numbers Ahead of ‘Taylor’s Version’. From No. 1 hits to album sales to tour grosses, these numbers help tell the story of Swift's monumental success with ...Analyzed: Taylor Swift / 1989 (Taylor's Version) (Deluxe)-----DR Peak RMS Duration Track----- DR5 -0.01 dB -6.81 dB 3:33 01-Welcome To New York (Taylor's Version) DR7 -0.01 dB -8.25 dB 3:52 02-Blank Space (Taylor's Version) DR4 -0.01 dB -5.79 dB 3:51 03-Style (Taylor's Version) ...1989 (Taylor’s Version) CD 21 Songs Including 5 previously unreleased songs from The Vault Collectible CD album in jewel case with unique front and back cover art 1 Disc album with unique collectible disc artwork A collectible lyric booklet with never-before-seen photos 10”x10” double-sided Foldable Poster …Collection 1989 Shop is empty. Shop the Official Taylor Swift Online store for exclusive Taylor Swift products including shirts, hoodies, music, accessories, phone cases, tour merchandise and old Taylor merch!09-Nov-2023 ... “1989 (Taylor's Version)” becomes Taylor Swift's fourth re-released album. The album joins “Fearless (Taylor's Version),” “Red (Taylor's Version)&nb...1989 (Taylor's Version), an Album by Taylor Swift. Released 27 October 2023 on Republic. Genres: Synthpop, Dance-Pop, Alt-Pop. Rated #1048 in the best albums of 2023. Featured peformers: Taylor Swift (lead vocals, writer, producer, executive producer, creative director), Șerban Ghenea (mixer), Randy Merrill (mastering engineer), Beth …30-Oct-2023 ... Taylor's Version adds more volume to the main vocal, the guitars/percussion, and Colbie Caillat's harmonies. Listening to Taylor's Version felt ...Listen to “Sparks Fly" (Taylor’s Version) by Taylor Swift from the album Speak Now (Taylor’s Version).Buy/Download/Stream ‘Speak Now (Taylor's Version)’: htt... 1989 sold 1.287 million copies in the US during its first week and debuted at number one on Billboard 200. It became the best-selling album of 2014 in the country with total sales of 6 million as ... Taylor Swift has announced the latest in her series of re-recorded albums, 1989 (Taylor’s Version), for release on October 27.It will arrive just three months after Speak Now (Taylor’s Version ...Following the announcement at SoFi stadium, Swift took to her social media accounts to commemorate the release of “1989 (Taylor’s Version).” Swifties have recently experienced a similar announcement: Swift announced “Speak Now (Taylor’s Version)” in May! MEGA. Per the “This Love” singer’s Instagram announcement she wrote, …1989 (Taylor’s Version) is the fourth of the six re-recorded albums on Taylor Swift’s mission to regain ownership over her catalogue from 2006 to 2017. It was …13-Aug-2023 ... 1989 (Taylor's Version) is on its way to you! The 1989 album changed my life in countless ways, and it fills me with such excitement to announce ...Provided to YouTube by Universal Music GroupBlank Space (Taylor's Version) · Taylor Swift1989 (Taylor's Version)℗ 2023 Taylor SwiftReleased on: 2023-10-27Pro...Taylor Swift will be crowned when the U.K. albums chart is published later this week. The U.S. pop singer opens-up a monster lead in the U.K. chart race with 1989 (Taylor’s Version) (via EMI ...Listen to the song here: https://taylor.lnk.to/wildestdreamsTV🕰️ Pre-order the new album Midnights by Taylor Swift available everywhere October 21: https://...Can we be honest for a second? Going to concerts can be a massive pain. You have to hope you get tickets (we’re looking at you, Taylor Swift), pay an arm and a leg, and then cram y...On the final night of the Eras Tour’s first U.S. leg, Taylor Swift announced the release date for her fourth re-recorded album, revealing that 1989 (Taylor's Version) is set to drop on October ... 1989 (Taylor's Version) is the re-recording of Taylor Swift 's fifth studio album 1989. It is her fourth re-recorded album. It was released on October 27, 2023, through Republic Records. The re-record's release was on hold due to the " Shake It Off " lawsuit, which has since been dropped without a final verdict on December 12, 2022. The 1989 album changed my life in countless ways, and it fills me with such excitement to announce that my version of it will be out October 27th. To be perfectly honest, this is my most FAVORITE re-record I’ve ever done because the 5 From The Vault tracks are so insane. I can’t believe they were ever left behind. But not for long!Package details:1989 …Taylor Swift’s “1989 (Taylor’s Version) ” — an antiseptic pop album scrubbed of any greasy country music fingerprints — qualifies as is a re-creation of a rare and exquisite dud that ...Following the announcement at SoFi stadium, Swift took to her social media accounts to commemorate the release of “1989 (Taylor’s Version).” Swifties have recently experienced a similar announcement: Swift announced “Speak Now (Taylor’s Version)” in May! MEGA. Per the “This Love” singer’s Instagram announcement she wrote, …09-Aug-2023 ... Surprise!! 1989 (Taylor's Version) is on its way to you ! The 1989 album changed my life in countless ways, and it fills me with such ...Taylor Swift’s ‘1989’: 9 Key Numbers Ahead of ‘Taylor’s Version’. From No. 1 hits to album sales to tour grosses, these numbers help tell the story of Swift's monumental success with ...Taylor Swift Reveals '1989 (Taylor's Version)' Back Covers and Complete Tracklist. Four of the vault track titles were confirmed earlier on Wednesday but Swift left one — "Slut!"Listen to 1989 (Taylor's Version) by Taylor Swift on Apple Music. 2023. 21 Songs. Duration: 1 hour, 17 minutes.04-Nov-2023 ... “Wildest Dreams” isn't much different from the original, but it feels even dreamier and more captivating thanks to its improved production ...Listen: https://www.youtube.com/watch?v=mvVBuG4IOW4The first time a Taylor's Version sounds worse than the original.More pop reviews: https://www.youtube.com...Sep 20, 2023 · Taylor Swift Reveals ‘1989 (Taylor’s Version)’ Complete Tracklist, Including Vault Songs. The singer-songwriter wrote after fans solved word puzzles on Google to unveil the bonus track ... On the final night of the Eras Tour’s first U.S. leg, Taylor Swift announced the release date for her fourth re-recorded album, revealing that 1989 (Taylor's Version) is set to drop on October ...Straight out of your “wildest dreams,” Taylor Swift has finally released “1989 (Taylor’s Version).” The singer released the album – originally recorded and released in …04-Nov-2023 ... “Wildest Dreams” isn't much different from the original, but it feels even dreamier and more captivating thanks to its improved production ...On Friday, Swift released “1989 (Taylor’s Version)" — nine years to the day after the original album was released. The artist is now reportedly a billionaire, according to Bloomberg. When ...Écoute 1989 (Taylor's Version) par Taylor Swift sur Deezer. Welcome To New York (Taylor's Version), Blank Space (Taylor's Version), Style (Taylor's Version)...27-Oct-2023 ... "Is It Over Now?" is a brutal breakup song from Swift about a relationship that doesn't seem to have ended on the best of terms. "You dream of&nb...With 1.653 million equivalent album units, 1989 (Taylor’s Version) gives Taylor Swift the largest week for any album, by units earned, since 2015, and easily …1989 (Taylor’s Version), the fourth release in the superstar’s six-album re-recording project, earned 1.653 million equivalent album units in its debut week, scoring Swift her 13th No. 1 on ... 1989 (Taylor's Version) is the re-recording of Taylor Swift 's fifth studio album 1989. It is her fourth re-recorded album. It was released on October 27, 2023, through Republic Records. The re-record's release was on hold due to the " Shake It Off " lawsuit, which has since been dropped without a final verdict on December 12, 2022. Shop Taylor Swift - 1989 (Taylor's Version) Tangerine Edition (Target Exclusive, Vinyl) at Target. Choose from Same Day Delivery, Drive Up or Order Pickup. Free standard shipping with $35 …دانلود آلبوم 1989 (Taylor’s Version) از تیلور سوئیفت با کیفیت اصلی. دانلود آهنگ های خارجی. Musicbaran. ۲۵ اکتبر ۲۰۲۳. ۱. دانلود آلبوم جدید زیبا و شنیدنی Taylor Swift به نام 1989 (Taylor’s Version) از رسانه موزیک باران.Oct 27, 2023 · Taylor Swift - 1989 Taylor's Version Crystal Skies Blue Deluxe Edition, Limited Edition [CD] Audio CD. $23.99 $ 23. 99. FREE delivery Thu, Mar 14 on $35 of items ... When Taylor Swift announced that 1989 (Taylor’s Version) was finally seeing release, she mentioned that, of all the albums she’s faithfully re-recorded in her quest to retake her master tapes, this one was special. “The 1989 album changed my life in countless ways,” she wrote on Instagram.1989 is the fifth studio album by the American singer-songwriter Taylor Swift, released on October 27, 2014, by Big Machine Records.Inspired by 1980s synth-pop, Swift conceived 1989 to recalibrate her artistry to pop after critics disputed her status as a country musician when she released the cross-genre Red (2012) to country …Shop Taylor Swift - 1989 (Taylor's Version) Tangerine Edition (Target Exclusive, Vinyl) at Target. Choose from Same Day Delivery, Drive Up or Order Pickup. Free standard shipping with $35 …1989 (Taylor's Version) (2023) Speak Now (Taylor's Version) is the third re-recorded album by the American singer-songwriter Taylor Swift, released on July 7, 2023, by …27-Oct-2023 ... 27. The release date came after the "Shake It Off" singer dropped a lot of clues about it. In June 2022, Swift seemingly dropped Easter eggs ...Taylor Swift will be crowned when the U.K. albums chart is published later this week. The U.S. pop singer opens-up a monster lead in the U.K. chart race with 1989 (Taylor’s Version) (via EMI ...For 1989, the closest font is "Taylor Swift Handwriting" Suggested font: Taylor Swift Handwriting. Edited on Dec 15, 2023 at 10:35 by marty666 ... For 1989 (Taylor's Version), the closest font is "Taytex", however it won't show the 8 in "1989" unless you buy the pro font. Suggested font: Taytex. Edited on Dec 15, 2023 at 10:35 by …1989 (Taylor’s Version) is the fourth of the six re-recorded albums on Taylor Swift’s mission to regain ownership over her catalogue from 2006 to 2017. The Tangerine Edition was announced as a ...On October 27th, Taylor will finally release her record-breaking fifth album as her highly anticipated fourth re-record. Alongside all those iconic 1989 tracks, Taylor has dipped into the Vault and has included five brand new, never-heard-before tracks.. However, unlike Fearless (TV), Red (TV) and Speak Now …Taylor Swift Beth Garrabrant. According to initial reports to data tracking firm Luminate, Taylor Swift ’s 1989 (Taylor’s Version) sold over 1.1 million copies in the U.S. in its first six ...They'll tell you I'm insane (Insane) But I've got a blank space, baby. And I'll write your name. [Bridge] Boys only want love if it's torture. Don't say I didn't, say I didn't warn ya. Boys only ...With 1.653 million equivalent album units, 1989 (Taylor’s Version) gives Taylor Swift the largest week for any album, by units earned, since 2015, and easily … 1989 (Taylor's Version) Track 9-16 Discussion Megathread: 28:13 Taylor Swift, Ryan Tedder, Max Martin, Shellback, Imogen Heap & Jack Antonoff 17-21 1989 (Taylor's Version) From the Vault Megathread: 24:32 Taylor Swift, Jack Antonoff, Patrick Berger & Diane Warren 17 "Slut!" Days after Speak Now (Taylor's Version) was released in July 2023, her music video for "I Can See You" had fans buzzing about 1989 clues. The video starts with a close up of Swift's red lips ...10-Aug-2023 ... After months of teasing its arrival , Taylor Swift finally announced the release date of 1989 (Taylor's Version) during her August 9 ...Swift revealed Wednesday that 1989 (Taylor’s Version) will release Oct. 27. The singer announced the news during the sixth night of her Eras Tour shows at SoFi Stadium in Inglewood, California ...30-Oct-2023 ... Taylor's Version adds more volume to the main vocal, the guitars/percussion, and Colbie Caillat's harmonies. Listening to Taylor's Version felt ...26-Oct-2023 ... Plainly put, in the “1989” Vault tracks, she's falling for a higher class of rogue. And mourning them just a little less, when things don't work ...Listen to 1989 (Taylor's Version) by Taylor Swift on Apple Music. 2023. 21 Songs. Duration: 1 hour, 17 minutes.Taylor Swift has once again graced us with a re-recording of one of her albums, and this time round it’s ‘1989 (Taylor’s Version)’.The 2014 album that won Swift her second Grammy Album of the Year award among many others, has finally been reclaimed by the 33-year-old, as she ticks off another record that she has re …Ouça e veja as letras das músicas do álbum 1989 (Taylor's Version) de Taylor Swift no maior site de música do Brasil. menu. LETRAS.MUS.BR - Letras de músicas. buscar. Músicas; Artistas; Estilos musicais; Playlists; ... 1989 (Taylor's Version) [Deluxe] 2023 • Álbum 1989 (Taylor's Version) [Tangerine Edition] ...25-Oct-2023 ... Taylor Swift's upcoming album 1989 (Taylor's Version) will be released this month and will include five new vault tracks. 1989 (Taylor's Version) Vinyl. $44.89. Shop the Official Taylor Swift Online store for exclusive Taylor Swift products including shirts, hoodies, music, accessories, phone cases, tour merchandise and old Taylor merch! . Aug 10, 2023 · Taylor Swift is reliving 1989 all over agTaylor Swift has delighted fans with a re-recorded version of 1 1989 (Taylor's Version) is the fourth re-recorded album of Taylor Swift's fifth studio album, 1989, being released on October 27th, 2023. The re-recording is Swift's counter measure against the changed ownership of the masters to her first six studio albums. It features a set of 5 unreleased tracks from the 1989 era billed as "From The Vault". Like any serious literary work, Taylor Swift leads the new songs on her albums with an introduction — or, in her words, a prologue. With the release of "1989 (Taylor's Version)" Oct. 27, fans ... 05-Nov-2023 ... Three different variations of Analyzed: Taylor Swift / 1989 (Taylor's Version) (Deluxe)-----DR Peak RMS Duration Track----- DR5 -0.01 dB -6.81 dB 3:33 01-Welcome To New York (Taylor's Version) DR7 -0.01 dB -8.25 dB 3:52 02-Blank Space (Taylor's Version) DR4 -0.01 dB -5.79 dB 3:51 03-Style (Taylor's Version) ...Come Away With Me Norah Jones. Turn the Lights Back On Billy Joel. Tubular Bells Mike Oldfield. Crime Of The Century [2014 - HD Remaster] Supertramp. Liberty Anette Askvik. Listen to unlimited or download 1989 (Taylor's Version) by Taylor Swift in Hi-Res quality on Qobuz. Subscription from £10.83/month. The deluxe of 1989 (Taylor’s Version) was announced by Swift...

Continue Reading